[Login] or [Signup]
Login
Username:
Password:
[Signup]
[Recover Account]


Poll


You must be logged in to view polls



Torrent Details For "Jinn.2019.HDRip.XviD.AC3.LLG"

Jinn.2019.HDRip.XviD.AC3.LLG

Download this torrent | Magnet Download
Health:
Seeds: 0
Leechers: 0
Completed:
Last Checked: 11-02-2019 12:13:57
External Torrent
Update Stats
Download Magnet


Poster
No poster


iMDB
Title: Jinn
Year: 2019
Language: English
Director: Mir-Jean Bou Chaaya
Amin Matalqa
Writing By: Elan Dassani,Rajeev Dassani,Amin Matalqa,
Produced By: Mir-Jean Bou Chaaya,Elan Dassani,Rajeev Dassani,Zeus Zamani,
Cast:
Hana Chamoun as Ms. Ola 6 episodes
Manal Sehaimat as Lubna 4 episodes
Faris Al Bahri ">Faris Al Bahri as Naji 3 episodes
Eyad Hourani as Khaled 1 episode


Watch-Free-HD     Download

Details
Name:Jinn.2019.HDRip.XviD.AC3.LLG
Description:

Quote:



******************************Thumbnail:**********************

 

******************************Screenshots:********************

 Screenshot 1

 Screenshot 2

 Screenshot 3

 Screenshot 4

 Screenshot 5

 Screenshot 6

 Screenshot 7

 Screenshot 8

 Screenshot 9

 Screenshot 0


******************************************************

Jinn.2019.HDRip.XviD.AC3.LLG.mp4
Format                                   : MPEG-4
Format profile                           : Base Media
Codec ID                                 : isom (isom/iso2/avc1/mp41)
File size                                : 1.01 GiB
Duration                                 : 1 h 32 min
Overall bit rate mode                    : Variable
Overall bit rate                         : 1 577 kb/s
Writing application                      : Lavf57.83.100

Video
ID                                       : 1
Format                                   : AVC
Format/Info                              : Advanced Video Codec
Format profile                           : [email protected]
Format settings                          : CABAC / 1 Ref Frames
Format settings, CABAC                   : Yes
Format settings, RefFrames               : 1 frame
Codec ID                                 : avc1
Codec ID/Info                            : Advanced Video Coding
Duration                                 : 1 h 32 min
Bit rate mode                            : Variable
Bit rate                                 : 1 189 kb/s
Maximum bit rate                         : 3 600 kb/s
Width                                    : 720 pixels
Height                                   : 304 pixels
Display aspect ratio                     : 2.35:1
Frame rate mode                          : Constant
Frame rate                               : 23.976 (23976/1000) FPS
Color space                              : YUV
Chroma subsampling                       : 4:2:0
Bit depth                                : 8 bits
Scan type                                : Progressive
Bits/(Pixel*Frame)                       : 0.227
Stream size                              : 784 MiB (75%)
Language                                 : English
Codec configuration box                  : avcC

Audio
ID                                       : 2
Format                                   : AC-3
Format/Info                              : Audio Coding 3
Commercial name                          : Dolby Digital
Codec ID                                 : ac-3
Duration                                 : 1 h 32 min
Bit rate mode                            : Constant
Bit rate                                 : 384 kb/s
Channel(s)                               : 6 channels
Channel layout                           : L R C LFE Ls Rs
Sampling rate                            : 48.0 kHz
Frame rate                               : 31.250 FPS (1536 SPF)
Bit depth                                : 16 bits
Compression mode                         : Lossy
Stream size                              : 253 MiB (24%)
Language                                 : English
Service kind                             : Complete Main
Default                                  : Yes
Alternate group                          : 1



********************************************************


Category:Movies > HDRips
Lang:English  English
Total Size:1.02 GB
Info Hash:7ed9c405dcab50b58f7dbb1f132c369bec690401
Added By:LifeLongg
Date Added:11-02-2019 12:13:57
Views:106
Hits:8

Download Torrent

Ratings:Not Yet Rated (Log in to rate it)


Tracker:
udp://tracker.openbittorrent.com:80/announce


File List: 


Comments

No comments still posted

Powered by 10 Hamsters v2-svn -|- Page Generated In 0.525360 secs.
-|- RSS FEED
Theme By: Nikkbu