[Login] or [Signup]
Login
Username:
Password:
[Signup]
[Recover Account]


Poll


You must be logged in to view polls



Torrent Details For "18+.Between.Worlds.2018.720p.BluRay.X264.ENG.SUB.LLG"

18+.Between.Worlds.2018.720p.BluRay.X264.ENG.SUB.LLG

Download this torrent | Magnet Download
Health:
Seeds: 39
Leechers: 7
Completed: 455 
Last Checked: 14-02-2019 02:22:24
External Torrent
Update Stats
Download Magnet


Poster
No poster


iMDB
Title: Between Worlds
Year: 2018
Runtime: 90 minutes
Votes: 3152
Rating: 5.2/10
Language: English
Tagline: His New Life is Haunted by Old Ghosts
Director: Maria Pulera
Writing By: Maria Pulera,
Produced By: Jim Agnew,Eric Banoun,Aaron Collins,David Hillary,Maria Pulera,
Music: Jason Solowsky
Cast:
Nicolas Cage as Joe
Franka Potente as Julie
Penelope Mitchell as Billie
Garrett Clayton as Mike
Hopper Penn as Rick
Lydia Hearst as Mary
Nailim Sanchez as Jasmine
Richard Pait as Larry
Brit Shaw as Lettie
David Lee Smith as Kirby
Trailers:
Official Trailer


Watch-Free-HD     Download

Details
Name:18+.Between.Worlds.2018.720p.BluRay.X264.ENG.SUB.LLG
Description:

Quote:



******************************Thumbnail:**********************

 

******************************Screenshots:********************

 Screenshot 1

 Screenshot 2

 Screenshot 3

 Screenshot 4

 Screenshot 5

 Screenshot 6

 Screenshot 7

 Screenshot 8

 Screenshot 9

 Screenshot 0


******************************************************

18+.Between.Worlds.2018.720p.BluRay.X264.ENG.SUB.LLG.mp4
Format                                   : MPEG-4
Format profile                           : Base Media
Codec ID                                 : isom (isom/iso2/avc1/mp41)
File size                                : 1.26 GiB
Duration                                 : 1 h 30 min
Overall bit rate mode                    : Variable
Overall bit rate                         : 1 997 kb/s


Video
ID                                       : 1
Format                                   : AVC
Format/Info                              : Advanced Video Codec
Format profile                           : [email protected]
Format settings                          : CABAC / 1 Ref Frames
Format settings, CABAC                   : Yes
Format settings, RefFrames               : 1 frame
Codec ID                                 : avc1
Codec ID/Info                            : Advanced Video Coding
Duration                                 : 1 h 30 min
Bit rate mode                            : Variable
Bit rate                                 : 1 481 kb/s
Maximum bit rate                         : 4 500 kb/s
Width                                    : 1 280 pixels
Height                                   : 690 pixels
Display aspect ratio                     : 1.85:1
Frame rate mode                          : Constant
Frame rate                               : 23.976 (23976/1000) FPS
Color space                              : YUV
Chroma subsampling                       : 4:2:0
Bit depth                                : 8 bits
Scan type                                : Progressive
Bits/(Pixel*Frame)                       : 0.070
Stream size                              : 956 MiB (74%)
Language                                 : English


Audio
ID                                       : 2
Format                                   : AC-3
Format/Info                              : Audio Coding 3
Commercial name                          : Dolby Digital
Codec ID                                 : ac-3
Duration                                 : 1 h 30 min
Bit rate mode                            : Constant
Bit rate                                 : 512 kb/s
Channel(s)                               : 6 channels
Channel layout                           : L R C LFE Ls Rs
Sampling rate                            : 48.0 kHz
Frame rate                               : 31.250 FPS (1536 SPF)
Bit depth                                : 16 bits
Compression mode                         : Lossy
Stream size                              : 331 MiB (26%)
Service kind                             : Complete Main
Default                                  : Yes
Alternate group                          : 1



********************************************************


Category:Movies > 720P Bluray
Lang:English  English
Total Size:1.30 GB
Info Hash:896bebcccc8186eea760063f1befecedc279a629
Added By:LifeLongg
Date Added:11-02-2019 12:29:54
Views:498
Hits:55

Download Torrent

Ratings:Not Yet Rated (Log in to rate it)


Tracker:
udp://tracker.openbittorrent.com:80/announce


File List: 


Comments

No comments still posted

Powered by 10 Hamsters v2-svn -|- Page Generated In 0.187560 secs.
-|- RSS FEED
Theme By: Nikkbu